#1 (permalink)  
No Leído 02-01-2012
Avatar de orlando_2312
Senior Member
 
Fecha de Ingreso: Nov 2010
Mensajes: 915
Gracias: 1
Agradecido 775 Veces en 387 Posts
Poder de Credibilidad: 4
orlando_2312 está en el buen camino
Predeterminado EL encanto de Emmanuelle [DVDRip Erotico Castellano 1995]

Host: Otros
Audio: Castellano
Subtítulos: No
Género: Otros






Información del archivo en el servidor
Partes: 2
Servidor: FS
Tamaño: 700 MB

Sinopsis
SINOPSIS: Durante un viaje por las islas del mar Egeo, Emmanuelle,
conoce a un escultor que está obsesionado con una mujer de
arcilla que él mismo ha modelado. Emmanuelle utiliza el
poder mágico de su pócima para convertir la misteriosa
escultura en una mujer real, de carne y hueso, con la
que el escultor hará el amor.

Caps





Ficha Tenica

Dirección: Francis Leroi
Países: Francia / Año: 1995
Género: Drama Erótico
Interpretación: Sylvia Kristel,
Marcela Walerstein, George Lazenby,
Pham Duc-Tu, Jay Hausman, Daniel
Hung Meas, Tony Senegal, Vibbe Haugaard
Guión: Claire Lorentz / Alain
Siritzky / Jean-Marc Vasseur /
Emmanuelle Arsan (Personajes)
Producción: Nora Rim
Música: Pierre Bachelet
Fotografía: Denis Rouden

Datos de ripeo

General
Complete name : files/O2312O2312ELENCANTODEEMMANUELLECASTELLANO.avi
Format : AVI
Format/Info : Audio Video Interleave
File size : 700 MiB
Duration : 1h 33mn
Overall bit rate : 1 048 Kbps
Writing application : Nandub v1.0rc2
Writing library : Nandub build 1852/release

Video
ID : 0
Format : MPEG-4 Visual
Codec ID : DIV3
Codec ID/Hint : DivX 3 Low
Duration : 1h 33mn
Bit rate : 941 Kbps
Width : 544 pixels
Height : 304 pixels
Display aspect ratio : 16:9
Frame rate : 25.000 fps
Color space : YUV
Chroma subsampling : 4:2:0
Bit depth : 8 bits
Bits/(Pixel*Frame) : 0.228
Stream size : 628 MiB (90%)

Audio
ID : 1
Format : MPEG Audio
Format version : Version 1
Format profile : Layer 3
Mode : Joint stereo
Mode extension : MS Stereo
Codec ID : 55
Codec ID/Hint : MP3
Duration : 1h 33mn
Bit rate mode : Variable
Bit rate : 93.9 Kbps
Channel(s) : 2 channels
Sampling rate : 48.0 KHz
Stream size : 62.7 MiB (9%)
Alignment : Aligned on interleaves
Interleave, duration : 24 ms (0.60 video frame)
Interleave, preload duration : 200 ms
Writing library : LAME3.90
Encoding settings : -m m -V 4 -q 5 -lowpass 9.7

Descarga
FS
Contenido Oculto Este post contiene información oculta, debes contestar el post o hacer click en el botón 'Gracias' para ver el contenido.


Nota: Si encuentras un link caído avísame para volverlo a subir
Los siguientes 2 Usuarios dan las gracias a orlando_2312 por este Post:
bestalex (11-09-2012), toroI (11-06-2012)
Recomendamos
  #2 (permalink)  
No Leído 11-06-2012
Avatar de toroI
Junior Member
 
Fecha de Ingreso: Mar 2012
Mensajes: 5
Gracias: 4
Agradecido 0 Veces en 0 Posts
Poder de Credibilidad: 0
toroI está en el buen camino
Predeterminado Re: EL encanto de Emmanuelle [DVDRip Erotico Castellano 1995]


el link?........
Responder Citando
  #3 (permalink)  
No Leído 11-06-2012
Avatar de toroI
Junior Member
 
Fecha de Ingreso: Mar 2012
Mensajes: 5
Gracias: 4
Agradecido 0 Veces en 0 Posts
Poder de Credibilidad: 0
toroI está en el buen camino
Predeterminado Re: EL encanto de Emmanuelle [DVDRip Erotico Castellano 1995]


parte 2 no funciona...
Responder Citando
  #4 (permalink)  
No Leído 11-09-2012
Avatar de bestalex
Senior Member
 
Fecha de Ingreso: Dec 2009
Mensajes: 125
Gracias: 31
Agradecido 41 Veces en 37 Posts
Poder de Credibilidad: 5
bestalex está en el buen camino
Predeterminado Re: EL encanto de Emmanuelle [DVDRip Erotico Castellano 1995]


gracias por el aporte
Responder Citando
Respuesta

Herramientas
Desplegado

Normas de Publicación
No puedes crear nuevos temas
No puedes responder mensajes
No puedes subir archivos adjuntos
No puedes editar tus mensajes

Los Códigos BB están Activado
Las Caritas están Activado
[IMG] está Activado
El Código HTML está Desactivado
Trackbacks are Activado
Pingbacks are Activado
Refbacks are Activado


Temas Similares
Tema Autor Foro Respuestas Último mensaje
Emmanuelle [HD-Rip] [1974 Drama Erótico] desfalko Peliculas Gratis 26 03-20-2014 11:05 PM
Caligula [DVDRip Erotico Castellano 1979] orlando_2312 Peliculas en DVDRip Gratis 6 01-20-2014 10:47 AM
Malena [DVDRip Erotico Castellano 2000] orlando_2312 Peliculas en DVDRip Gratis 6 09-27-2013 02:53 AM
Intimidad [DVDRip Erotico Castellano 2001] orlando_2312 Peliculas en DVDRip Gratis 4 11-12-2012 03:37 PM
En la cama [DVDRip Erotico Castellano 2005] orlando_2312 Peliculas en DVDRip Gratis 3 01-05-2012 01:29 PM


La franja horaria es GMT. Ahora son las 08:24 AM.