Retroceder   Descargas de Peliculas y Series Warez » Peliculas Warez - Descargar Peliculas Gratis y Peliculas Online, Estrenos, Series, Trailers, Cine, Gratis > Descargar Peliculas Gratis > Peliculas Gratis


Like Tree1Likes
  • 1 Post By orlando_2312

Respuesta
LinkBack Herramientas Desplegado
  #1 (permalink)  
No Leído 01-20-2011
Avatar de orlando_2312
Senior Member
 
Fecha de Ingreso: Nov 2010
Mensajes: 932
Gracias: 1
Agradecido 780 Veces en 392 Posts
Poder de Credibilidad: 4
orlando_2312 está en el buen camino
Predeterminado Boudica, la reina guerrera [Español latino - FS - HF]







Información

Partes: 3 en Hotfile y 1 en FileServe
Servidor: FileServe y Hotfile
Tamaño: 987 Mb
Formato: .Avi
Calidad: Buena
Duración: 1:30:15

SINOPSIS: Boudica fue una reina guerrera de Britania, un pueblo
que habitaba el este de la isla de Gran Bretaña, en torno a
la comarca de Norfolk, que acaudilló a los icenos y a otras tribus
bretonas, incluyendo a sus vecinos los trinovantes, durante
el mayor levantamiento contra la ocupación del Imperio romano
entre los años 60 y 61 a.C., durante el reinado del emperador Nerón.



Director: Patrick Taulère
Guión: Sarah Kass
Género: Documentales / Biografía
Nacionalidad: EE.UU
Duración: 120 minutos
Año: 2006
Reparto: Charlotte Comer, Simona Cuciurianu
Danny Green, Radu Andrei Micu
Bronagh O'Mara, Adrian Pintea
Calificación moral: Todos los públicos

General
Format : AVI
Format/Info : Audio Video Interleave
File size : 987 MiB
Duration : 1h 30mn
Overall bit rate : 1 530 Kbps
Writing application : SpanishDub 1.5
Writing library : VirtualDub build 14328/release

Video
ID : 0
Format : MPEG-4 Visual
Format profile : Simple@L1
Format settings, BVOP : No
Format settings, QPel : No
Format settings, GMC : No warppoints
Format settings, Matrix : Default (H.263)
Codec ID : DIVX
Codec ID/Info : Project Mayo
Codec ID/Hint : DivX 4
Duration : 1h 30mn
Bit rate : 1 392 Kbps
Width : 480 pixels
Height : 360 pixels
Display aspect ratio : 4:3
Frame rate : 25.000 fps
Color space : YUV
Chroma subsampling : 4:2:0
Bit depth : 8 bits
Scan type : Progressive
Bits/(Pixel*Frame) : 0.322
Stream size : 899 MiB (91%)
Writing library : Lavc51.7.0

Audio
ID : 1
Format : MPEG Audio
Format version : Version 1
Format profile : Layer 3
Mode : Joint stereo
Mode extension : MS Stereo
Codec ID : 55
Codec ID/Hint : MP3
Duration : 1h 30mn
Bit rate mode : Constant
Bit rate : 128 Kbps
Channel(s) : 2 channels
Sampling rate : 48.0 KHz
Stream size : 82.6 MiB (8%)
Alignment : Split accross interleaves
Interleave, duration : 40 ms (1.00 video frame)
Interleave, preload duration : 500 ms




Descargas

Hotfile

Parte 1 -
Solo los usuarios registrados pueden ver los links de descarga. ¡Registrate ahora, ES GRATIS!
Contenido Oculto Este post contiene información oculta, debes contestar el post o hacer click en el botón 'Gracias' para ver el contenido.


valkiria likes this.

Última edición por luis88; 01-20-2011 a las 10:11 PM
Los siguientes 3 Usuarios dan las gracias a orlando_2312 por este Post:
CelticSophia (07-22-2012), valkiria (05-25-2013), Warez (01-27-2011)
Recomendamos
  #2 (permalink)  
No Leído 01-20-2011
Avatar de luis88
Senior Member
 
Fecha de Ingreso: Sep 2009
Ubicación: Kandor, Krypton
Mensajes: 11,363
Gracias: 7
Agradecido 164,878 Veces en 5,049 Posts
Poder de Credibilidad: 16
luis88 está en el buen camino
Predeterminado Re: Boudica, la reina guerrera [Español latino - FS - HF]


Gracias por el aporte y recuerda usar siempre las etiquetas code y hide
__________________
Para ver los Links Ocultos, solo tienes que dar click en el botón de gracias, dejar un comentario (Click en Respuesta Rápida) y recargar la pagina (F5), eso es todo.

¿REPRODUCIR BLURAY DESDE LA PC? - CLICK AQUI

¿COMO COMPRIMIR UN BLURAY DE 50 GB A 25GB? - CLICK AQUI

Solo los usuarios registrados pueden ver los links de descarga. ¡Registrate ahora, ES GRATIS!

Responder Citando
  #3 (permalink)  
No Leído 01-27-2011
Avatar de Warez
Administradores
 
Fecha de Ingreso: Aug 2009
Mensajes: 12,836
Gracias: 11,055
Agradecido 9,073 Veces en 2,990 Posts
Poder de Credibilidad: 10
Warez ha deshabilitado la reputación
Predeterminado Re: Boudica, la reina guerrera [Español latino - FS - HF]


Gracias por la Pelicula
__________________
Responder Citando
El siguiente Usuario da las gracias a Warez por este Post:
CelticSophia (07-22-2012)
  #4 (permalink)  
No Leído 05-25-2013
Avatar de valkiria
Junior Member
 
Fecha de Ingreso: May 2013
Mensajes: 1
Gracias: 1
Agradecido 0 Veces en 0 Posts
Poder de Credibilidad: 0
valkiria está en el buen camino
Predeterminado Re: Boudica, la reina guerrera [Español latino - FS - HF]


Gracias por la aportación!
un saludo!
Responder Citando
Respuesta

Herramientas
Desplegado

Normas de Publicación
No puedes crear nuevos temas
No puedes responder mensajes
No puedes subir archivos adjuntos
No puedes editar tus mensajes

Los Códigos BB están Activado
Las Caritas están Activado
[IMG] está Activado
El Código HTML está Desactivado
Trackbacks are Activado
Pingbacks are Activado
Refbacks are Activado



La franja horaria es GMT. Ahora son las 07:00 AM.