#1 (permalink)  
No Leído 12-02-2011
Avatar de AbueIo
Senior Member
 
Fecha de Ingreso: Nov 2010
Ubicación: Un lugar bajo el cielo
Mensajes: 1,532
Gracias: 139
Agradecido 3,337 Veces en 536 Posts
Poder de Credibilidad: 5
AbueIo está en el buen camino
Dentista Del Caos Espartaco Sangre y Arena Capitulos Temp 1

Host: Otros
Formato: BDRip
Región: No Aplica
Resolución: 1080p
Temporada: 1
Audio: Castellano
Sonido: Dolby Digital
Subtítulos: Castellano
Género: Historia







=
=

TÍTULO ORIGINAL Spartacus: Blood and Sand
AÑO 2010
DURACIÓN 55 min.
PAÍS
DIRECTOR Steven S. DeKnight (Creator), Rick Jacobson, Michael Hurst, Jesse Warn, Glenn Standring GUIÓN Brent Fletcher, Aaron Helbing, Todd Helbing, Miranda Kwok, Steven S. DeKnight, Tracy Bellomo, Andrew Chambliss, Daniel Knauf
MÚSICA Joseph LoDuca
FOTOGRAFÍA Aaron Morton
REPARTO Andy Whitfield, Lucy Lawless, John Hannah, Manu Bennett, Peter Mensah, Nick Tarabay, Viva Bianca, Lesley-Ann Brandt, Jai Courtney, Erin Cummings, Craig Walsh-Wrightson, Eka Darville, Antonio Te Maioha, Ande Cunningham, Daniel Feuerriegel, Katrina Law, Brooke Williams, David Austin, Janine Burchett, John Bach, Lliam Powell
PRODUCTORA Starz Media / Starz Productions; Productor: Sam Raimi
GÉNERO Serie de TV. Acción | Antigua Roma. Esclavitud. Erótico
=
=

=
=
Serie de TV (2010-Actualidad). 13 episodios. Traicionado por su país. Convertido en esclavo. Renacido como guerrero. Spartacus protagoniza la historia más gráfica y visceral del gladiador más famoso de Roma. Con un reparto estelar, asistimos a una mezcla única de acción, efectos gráficos y brutales batallas. Separado del amor de su vida, Spartacus tendrá que luchar por su supervivencia, participando en un espectáculo, donde el principal entretenimiento es la muerte. En un mundo de corrupción, violencia, sexo y fama acabará interviniendo en política y vivirá atormentado por el deseo de venganza.
=
=
=
=
La serie se estructura de la siguiente forma:

-Créditos iniciales.
-Diálogo de machitos.
-Batalla con mucha sangre salpicando en todas direcciones.
-Escena de sexo.
-Diálogo de machitos.
-Sangre en todas direcciones.
-Escena de sexo salvaje.
-Diálogo de machitos.
-Escotazo.
-Diálogo de zorras.
-Sangre salpicando en todas direcciones.
-Escena de sexo.
-Diálogo de machitos.
-Por la polla de Júpiter, sigue sin llover.
-Sangre.
-Escena subidita de tono.
-Escena de sexo explícito.
-Creo que podremos llegar a un acuerdo.
-Dientes volando entre gotas de sangre.
-Diálogo de machitos.
-Zorrerío.
-Pelea con sangre a chorros.
-Pelea con chorros de sangre.
-Plebe enfurecida.
-Más sangre.
-Orcos.
-Fundido en rojo... de sangre.
-Negociemos.
-Diálogo de compañerismo.
-Sangre, sangre, sangre...
-Un troll.
-Paga.
-No fuerces.
-Sangre.
-Que mal andamos de liquidez cariño.
-Más sangre.
-Escena de sexo.
-Ahí va, si yo estaba casado.
-Se te ve un pezón ¿y ahora? ahora se te ven los dos, y a la de al lado también.
-Créditos finales.

Lo cierto es que tiene su encanto. Es tan salvaje, tan primaria y tan excesiva en sus placeres que realmente consigue entretener. Sexo y violencia sin reparos.








Formato: MKV
Resulución: 1920 x 1080p
Format Profile:x264
Overall Bitrate:5640 Kbps
Tamaño: 2.17 GB GB
==
==

Audios:
1. Español de España AC3
2. Inglés AC3
==
==
Subtítulos:
1. Inglés
2. Español
==
==
Links: Durante los próximos 3 meses sólo subiré a
==
==
Fileserve, Filejungle, Uploadstation y Wupload;Los BDRemux
Fileserve, Filejungle, Wupload y Uploadstation; Los BDRip
Filejungle, Fileserve, Wupload y Uploadstation;Los FullBluray
==
==
Hoy estamos a 21-10-11 (hasta 31-1-12 usaré fijos sólo estos Hostings)
==
==
Archivos Totales:6Files
4Files .rar 452MB + 1File .rar 417 MB
1Verification File .sfv
Cortados con:WINRAR

INFO APROXIMADA DE TODOS LOS CAPÍTULOS
Código:
  Complete name                    : Espartaco Sangre y Arena - Cap 1 - La Serpiente Roja.mkv
  Format                           : Matroska
  Format version                   : Version 2
  File size                        : 2.17 GiB
  Duration                         : 55mn 3s
  Overall bit rate                 : 5 641 Kbps
  Encoded date                     : UTC 2011-12-02 12:35:40
  Writing application              : mkvmerge v5.1.0 ('And so it goes') built on Nov 28 2011 23:58:28
  Writing library                  : libebml v1.2.3 + libmatroska v1.3.0
   
  Video
  ID                               : 1
  Format                           : AVC
  Format/Info                      : Advanced Video Codec
  Format profile                   : [email protected]
  Format settings, CABAC           : Yes
  Format settings, ReFrames        : 2 frames
  Format settings, GOP             : M=5, N=15
  Codec ID                         : V_MPEG4/ISO/AVC
  Duration                         : 55mn 3s
  Bit rate mode                    : Variable
  Bit rate                         : 4 633 Kbps
  Maximum bit rate                 : 7 125 Kbps
  Width                            : 1 920 pixels
  Height                           : 1 080 pixels
  Display aspect ratio             : 16:9
  Frame rate                       : 23.976 fps
  Color space                      : YUV
  Chroma subsampling               : 4:2:0
  Bit depth                        : 8 bits
  Scan type                        : Progressive
  Bits/(Pixel*Frame)               : 0.093
  Stream size                      : 1.78 GiB (82%)
  Title                            : Ripeo y Montaje por AbueIo
   
  Audio #1
  ID                               : 2
  Format                           : AC-3
  Format/Info                      : Audio Coding 3
  Mode extension                   : CM (complete main)
  Codec ID                         : A_AC3
  Duration                         : 55mn 3s
  Bit rate mode                    : Constant
  Bit rate                         : 448 Kbps
  Channel(s)                       : 6 channels
  Channel positions                : Front: L C R, Side: L R, LFE
  Sampling rate                    : 48.0 KHz
  Bit depth                        : 16 bits
  Compression mode                 : Lossy
  Stream size                      : 176 MiB (8%)
  Title                            : AbueIo Español Castellano
  Language                         : Spanish
   
  Audio #2
  ID                               : 3
  Format                           : AC-3
  Format/Info                      : Audio Coding 3
  Mode extension                   : CM (complete main)
  Codec ID                         : A_AC3
  Duration                         : 55mn 3s
  Bit rate mode                    : Constant
  Bit rate                         : 448 Kbps
  Channel(s)                       : 6 channels
  Channel positions                : Front: L C R, Side: L R, LFE
  Sampling rate                    : 48.0 KHz
  Bit depth                        : 16 bits
  Compression mode                 : Lossy
  Stream size                      : 176 MiB (8%)
  Title                            : AbueIo Inglés
  Language                         : English
   
  Text #1
  ID                               : 4
  Format                           : UTF-8
  Codec ID                         : S_TEXT/UTF8
  Codec ID/Info                    : UTF-8 Plain Text
  Title                            : AbueIo Inglés
  Language                         : English
   
  Text #2
  ID                               : 5
  Format                           : UTF-8
  Codec ID                         : S_TEXT/UTF8
  Codec ID/Info                    : UTF-8 Plain Text
  Title                            : AbueIo Español Castellano
  Language                         : Spanish
   
  Menu
  00:00:00.000                     : en:Chapter 00
  00:09:09.006                     : en:Chapter 01
  00:18:13.675                     : en:Chapter 02
  00:27:31.775                     : en:Chapter 03
  00:33:19.372                     : en:Chapter 04
  00:43:58.344                     : en:Chapter 05
  00:52:59.676                     : en:Chapter 06
  00:54:51.037                     : en:Chapter 07
CAPÍTULO UNO: LA SERPIENTE ROJA





Por favor, abre tu jdownloader ANTES de ir al link de enlace
Los Enlaces sólo permiten la opción RSDF, CCF,Click N’ Load o DLC.Por lo tanto ya sabeis que sólo podéis usar o bien Jdownloader (mi consejo particular), bien el Mipony, el RapidShare Downloader-File o bien el CryptLoad-ContainerFile.
Gracias a tod@s



Links de 452 mb - ARCHIVOS INTERCAMBIABLES




Contenido Oculto Este post contiene información oculta, debes contestar el post o hacer click en el botón 'Gracias' para ver el contenido.
Contenido Oculto Este post contiene información oculta, debes contestar el post o hacer click en el botón 'Gracias' para ver el contenido.
Contenido Oculto Este post contiene información oculta, debes contestar el post o hacer click en el botón 'Gracias' para ver el contenido.
Contenido Oculto Este post contiene información oculta, debes contestar el post o hacer click en el botón 'Gracias' para ver el contenido.
Contenido Oculto Este post contiene información oculta, debes contestar el post o hacer click en el botón 'Gracias' para ver el contenido.



Chapter Two: Sacramentum Gladiatorum



Código:
DATOS MEDIAINFO








Contenido Oculto Este post contiene información oculta, debes contestar el post o hacer click en el botón 'Gracias' para ver el contenido.
Contenido Oculto Este post contiene información oculta, debes contestar el post o hacer click en el botón 'Gracias' para ver el contenido.
Contenido Oculto Este post contiene información oculta, debes contestar el post o hacer click en el botón 'Gracias' para ver el contenido.
Contenido Oculto Este post contiene información oculta, debes contestar el post o hacer click en el botón 'Gracias' para ver el contenido.
Contenido Oculto Este post contiene información oculta, debes contestar el post o hacer click en el botón 'Gracias' para ver el contenido.






1 x 03; LEGENDS
Contenido Oculto Este post contiene información oculta, debes contestar el post o hacer click en el botón 'Gracias' para ver el contenido.
Contenido Oculto Este post contiene información oculta, debes contestar el post o hacer click en el botón 'Gracias' para ver el contenido.
Contenido Oculto Este post contiene información oculta, debes contestar el post o hacer click en el botón 'Gracias' para ver el contenido.
Contenido Oculto Este post contiene información oculta, debes contestar el post o hacer click en el botón 'Gracias' para ver el contenido.
Contenido Oculto Este post contiene información oculta, debes contestar el post o hacer click en el botón 'Gracias' para ver el contenido.

1 x 04; THE THING IN THE PIT
Contenido Oculto Este post contiene información oculta, debes contestar el post o hacer click en el botón 'Gracias' para ver el contenido.
Contenido Oculto Este post contiene información oculta, debes contestar el post o hacer click en el botón 'Gracias' para ver el contenido.
Contenido Oculto Este post contiene información oculta, debes contestar el post o hacer click en el botón 'Gracias' para ver el contenido.
Contenido Oculto Este post contiene información oculta, debes contestar el post o hacer click en el botón 'Gracias' para ver el contenido.
Contenido Oculto Este post contiene información oculta, debes contestar el post o hacer click en el botón 'Gracias' para ver el contenido.





NEW SIZE IN UPLOAD chapt 5 and more


Código:
  Complete name                    : Espartaco Sangre y Arena - Temp1 - Cap 5 - Juego de Sombras.mkv
  Format                           : Matroska
  Format version                   : Version 2
  File size                        : 3.44 GiB
  Duration                         : 55mn 9s
  Overall bit rate                 : 8 916 Kbps
  Encoded date                     : UTC 2011-12-04 18:27:44
  Writing application              : mkvmerge v5.1.0 ('And so it goes') built on Nov 28 2011 23:58:28
  Writing library                  : libebml v1.2.3 + libmatroska v1.3.0
   
  Video
  ID                               : 1
  Format                           : AVC
  Format/Info                      : Advanced Video Codec
  Format profile                   : [email protected]
  Format settings, CABAC           : Yes
  Format settings, ReFrames        : 2 frames
  Format settings, GOP             : M=5, N=15
  Codec ID                         : V_MPEG4/ISO/AVC
  Duration                         : 55mn 9s
  Bit rate mode                    : Variable
  Bit rate                         : 7 843 Kbps
  Maximum bit rate                 : 12.0 Mbps
  Width                            : 1 920 pixels
  Height                           : 1 080 pixels
  Display aspect ratio             : 16:9
  Frame rate                       : 23.976 fps
  Color space                      : YUV
  Chroma subsampling               : 4:2:0
  Bit depth                        : 8 bits
  Scan type                        : Progressive
  Bits/(Pixel*Frame)               : 0.158
  Stream size                      : 3.02 GiB (88%)
  Title                            : Ripeado y Montado por AbueIo
   
  Audio #1
  ID                               : 2
  Format                           : AC-3
  Format/Info                      : Audio Coding 3
  Mode extension                   : CM (complete main)
  Codec ID                         : A_AC3
  Duration                         : 55mn 9s
  Bit rate mode                    : Constant
  Bit rate                         : 448 Kbps
  Channel(s)                       : 6 channels
  Channel positions                : Front: L C R, Side: L R, LFE
  Sampling rate                    : 48.0 KHz
  Bit depth                        : 16 bits
  Compression mode                 : Lossy
  Stream size                      : 177 MiB (5%)
  Title                            : AbueIo Español Castellano
  Language                         : Spanish
   
  Audio #2
  ID                               : 3
  Format                           : AC-3
  Format/Info                      : Audio Coding 3
  Mode extension                   : CM (complete main)
  Codec ID                         : A_AC3
  Duration                         : 55mn 9s
  Bit rate mode                    : Constant
  Bit rate                         : 448 Kbps
  Channel(s)                       : 6 channels
  Channel positions                : Front: L C R, Side: L R, LFE
  Sampling rate                    : 48.0 KHz
  Bit depth                        : 16 bits
  Compression mode                 : Lossy
  Stream size                      : 177 MiB (5%)
  Title                            : AbueIo Inglés
  Language                         : English
   
  Text #1
  ID                               : 4
  Format                           : UTF-8
  Codec ID                         : S_TEXT/UTF8
  Codec ID/Info                    : UTF-8 Plain Text
  Title                            : AbueIo Inglés
  Language                         : English
   
  Text #2
  ID                               : 5
  Format                           : UTF-8
  Codec ID                         : S_TEXT/UTF8
  Codec ID/Info                    : UTF-8 Plain Text
  Title                            : AbueIo Español
  Language                         : Spanish
   
  Menu
  00:00:00.000                     : en:Chapter 00
  00:08:44.565                     : en:Chapter 01
  00:17:35.888                     : en:Chapter 02
  00:24:08.071                     : en:Chapter 03
  00:33:13.574                     : en:Chapter 04
  00:42:13.113                     : en:Chapter 05
  00:53:19.029                     : en:Chapter 06







1 x 05: SHADOW GAMES




Contenido Oculto Este post contiene información oculta, debes contestar el post o hacer click en el botón 'Gracias' para ver el contenido.
Contenido Oculto Este post contiene información oculta, debes contestar el post o hacer click en el botón 'Gracias' para ver el contenido.
Contenido Oculto Este post contiene información oculta, debes contestar el post o hacer click en el botón 'Gracias' para ver el contenido.
Contenido Oculto Este post contiene información oculta, debes contestar el post o hacer click en el botón 'Gracias' para ver el contenido.



1 x 06: DELICATE THINGS


Contenido Oculto Este post contiene información oculta, debes contestar el post o hacer click en el botón 'Gracias' para ver el contenido.
Contenido Oculto Este post contiene información oculta, debes contestar el post o hacer click en el botón 'Gracias' para ver el contenido.
Contenido Oculto Este post contiene información oculta, debes contestar el post o hacer click en el botón 'Gracias' para ver el contenido.
Contenido Oculto Este post contiene información oculta, debes contestar el post o hacer click en el botón 'Gracias' para ver el contenido.






Contenido Oculto Este post contiene información oculta, debes contestar el post o hacer click en el botón 'Gracias' para ver el contenido.
Contenido Oculto Este post contiene información oculta, debes contestar el post o hacer click en el botón 'Gracias' para ver el contenido.
Contenido Oculto Este post contiene información oculta, debes contestar el post o hacer click en el botón 'Gracias' para ver el contenido.
Contenido Oculto Este post contiene información oculta, debes contestar el post o hacer click en el botón 'Gracias' para ver el contenido.





__________________
HOY ES UN REGALO.... POR ESO LO LLAMAMOS; EL PRESENTE





Última edición por AbueIo; 12-05-2011 a las 12:36 PM
Los siguientes 8 Usuarios dan las gracias a AbueIo por este Post:
FRAN12 (10-02-2012), godie16 (03-12-2012), johnheston (09-27-2012), manuelblaky (10-19-2013), ramset2000 (07-07-2012), REVENGE (11-09-2012), topicss (01-27-2013), Warez (03-21-2012)
Recomendamos
  #2 (permalink)  
No Leído 01-25-2012
Avatar de xavivi64
Junior Member
 
Fecha de Ingreso: Jan 2012
Mensajes: 5
Gracias: 1
Agradecido 0 Veces en 0 Posts
Poder de Credibilidad: 0
xavivi64 está en el buen camino
Predeterminado Re: Espartaco Sangre y Arena Capitulos Temp 1


graciasssssssssss
Responder Citando
  #3 (permalink)  
No Leído 03-12-2012
Avatar de godie16
Junior Member
 
Fecha de Ingreso: Nov 2011
Mensajes: 17
Gracias: 21
Agradecido 0 Veces en 0 Posts
Poder de Credibilidad: 0
godie16 está en el buen camino
Predeterminado Re: Espartaco Sangre y Arena Capitulos Temp 1


muchas gracias
Responder Citando
  #4 (permalink)  
No Leído 03-21-2012
Avatar de Warez
Administradores
 
Fecha de Ingreso: Aug 2009
Mensajes: 12,836
Gracias: 11,055
Agradecido 9,119 Veces en 2,997 Posts
Poder de Credibilidad: 10
Warez ha deshabilitado la reputación
Predeterminado Re: Espartaco Sangre y Arena Capitulos Temp 1


Gracias por la Serie
__________________
Responder Citando
  #5 (permalink)  
No Leído 07-07-2012
Avatar de ramset2000
Junior Member
 
Fecha de Ingreso: Sep 2010
Mensajes: 5
Gracias: 8
Agradecido 2 Veces en 1 Post
Poder de Credibilidad: 0
ramset2000 está en el buen camino
Predeterminado Re: Espartaco Sangre y Arena Capitulos Temp 1


Muchisimas gracias
Responder Citando
  #6 (permalink)  
No Leído 09-27-2012
Avatar de johnheston
Junior Member
 
Fecha de Ingreso: Jun 2012
Mensajes: 11
Gracias: 14
Agradecido 3 Veces en 2 Posts
Poder de Credibilidad: 0
johnheston está en el buen camino
Predeterminado Re: Espartaco Sangre y Arena Capitulos Temp 1


muchas gracias
Responder Citando
El siguiente Usuario da las gracias a johnheston por este Post:
FRAN12 (10-02-2012)
  #7 (permalink)  
No Leído 10-02-2012
Avatar de FRAN12
Junior Member
 
Fecha de Ingreso: Oct 2012
Mensajes: 2
Gracias: 3
Agradecido 0 Veces en 0 Posts
Poder de Credibilidad: 0
FRAN12 está en el buen camino
Predeterminado Re: Espartaco Sangre y Arena Capitulos Temp 1


Gracias por la Serie
Responder Citando
  #8 (permalink)  
No Leído 11-05-2012
Avatar de konan9
Junior Member
 
Fecha de Ingreso: Nov 2012
Mensajes: 2
Gracias: 1
Agradecido 0 Veces en 0 Posts
Poder de Credibilidad: 0
konan9 está en el buen camino
Predeterminado Re: Espartaco Sangre y Arena Capitulos Temp 1


gracias ojala los links funcionen
Responder Citando
  #9 (permalink)  
No Leído 11-09-2012
Avatar de opiece
Senior Member
 
Fecha de Ingreso: Dec 2010
Mensajes: 332
Gracias: 176
Agradecido 40 Veces en 24 Posts
Poder de Credibilidad: 4
opiece está en el buen camino
Predeterminado Re: Espartaco Sangre y Arena Capitulos Temp 1


muchas gracias
Responder Citando
  #10 (permalink)  
No Leído 11-09-2012
Avatar de REVENGE
Junior Member
 
Fecha de Ingreso: Nov 2012
Mensajes: 1
Gracias: 1
Agradecido 0 Veces en 0 Posts
Poder de Credibilidad: 0
REVENGE está en el buen camino
Predeterminado Re: Espartaco Sangre y Arena Capitulos Temp 1


mil gracias!
Responder Citando
  #11 (permalink)  
No Leído 01-27-2013
Avatar de topicss
Junior Member
 
Fecha de Ingreso: Jan 2013
Mensajes: 3
Gracias: 3
Agradecido 0 Veces en 0 Posts
Poder de Credibilidad: 0
topicss está en el buen camino
Predeterminado Re: Espartaco Sangre y Arena Capitulos 1 y 2


muchas gracias

Pd: podrias resubirla?

Última edición por topicss; 01-27-2013 a las 08:31 PM
Responder Citando
Respuesta

Herramientas
Desplegado

Normas de Publicación
No puedes crear nuevos temas
No puedes responder mensajes
No puedes subir archivos adjuntos
No puedes editar tus mensajes

Los Códigos BB están Activado
Las Caritas están Activado
[IMG] está Activado
El Código HTML está Desactivado
Trackbacks are Activado
Pingbacks are Activado
Refbacks are Activado


Temas Similares
Tema Autor Foro Respuestas Último mensaje
Espartaco: Dioses De La Arena 2011 Blu-Ray 1080p Español Latino/Ingles (6 Episodios) CadagotoHD Series en HD-DVD, BluRay, HDTV Gratis 195 05-12-2014 04:48 AM
Sangre Simplemente Sangre (Audio Latino) [2009] majestad23 Peliculas en DVDR Gratis 6 05-12-2014 04:29 AM
Espartaco: Dioses De La Arena (Tv)BDRip 720p Español Latino/Ingles 2011 Miniserie CadagotoHD Series en HD-DVD, BluRay, HDTV Gratis 103 03-16-2014 10:22 PM
Spartacus.Sangre.y.Arena.DVDRip.XVID.Audio.Latino. Ingles.[MU][FS] difeorqui Series en DVDR Gratis 47 02-16-2013 11:03 PM
Descargar Pelicula Sangre por Sangre en latino gratis pilroda Peliculas Gratis 5 06-19-2012 03:56 AM


La franja horaria es GMT. Ahora son las 10:18 PM.